<?xml version="1.0" encoding="UTF-8" standalone="no"?>
<!-- Creator: CorelDRAW X7 -->

<svg
   xml:space="preserve"
   width="1260px"
   height="411px"
   version="1.1"
   style="shape-rendering:geometricPrecision; text-rendering:geometricPrecision; image-rendering:optimizeQuality; fill-rule:evenodd; clip-rule:evenodd"
   viewBox="0 0 1260 411"
   id="svg16751"
   sodipodi:docname="Rüstungsständer Rabatt_de.svg"
   inkscape:version="1.2 (dc2aedaf03, 2022-05-15)"
   xmlns:inkscape="http://www.inkscape.org/namespaces/inkscape"
   xmlns:sodipodi="http://sodipodi.sourceforge.net/DTD/sodipodi-0.dtd"
   xmlns:xlink="http://www.w3.org/1999/xlink"
   xmlns="http://www.w3.org/2000/svg"
   xmlns:svg="http://www.w3.org/2000/svg"><sodipodi:namedview
   id="namedview16753"
   pagecolor="#ffffff"
   bordercolor="#000000"
   borderopacity="0.25"
   inkscape:showpageshadow="2"
   inkscape:pageopacity="0.0"
   inkscape:pagecheckerboard="0"
   inkscape:deskcolor="#d1d1d1"
   showgrid="false"
   inkscape:zoom="1.547619"
   inkscape:cx="555.04615"
   inkscape:cy="205.47692"
   inkscape:window-width="3840"
   inkscape:window-height="2054"
   inkscape:window-x="-11"
   inkscape:window-y="-11"
   inkscape:window-maximized="1"
   inkscape:current-layer="Ebene_x0020_1" />
 <defs
   id="defs16712">
  <font
   id="FontID1"
   horiz-adv-x="667"
   font-variant="normal"
   style="fill-rule:nonzero"
   font-weight="400">
	<font-face
   font-family="Arial"
   id="font-face16504">
	</font-face>
   <missing-glyph
   id="missing-glyph16508"><path
     d="M0 0z"
     id="path16506" /></missing-glyph>
   <glyph
   unicode="€"
   horiz-adv-x="556"
   id="glyph16512"><path
     d="M386.003 647c-54.6725,0 -100.508,-13.1647 -137.505,-39.4941 -22.1686,-15.5114 -42.1569,-37.68 -59.9983,-66.1729 -18.1743,-29.6746 -28.9923,-57.6683 -32.1711,-84.3305l332.679 0 -13.1813 -66.0065 -327.32 0c-0.332862,-6.82367 -0.499293,-13.3311 -0.499293,-19.3226 0,-25.0146 0.166431,-39.8436 0.499293,-44.6701l314.488 0 -13.664 -66.0065 -290.488 0c13.4975,-74.328 46.3177,-127.17 98.3274,-158.326 37.4969,-22.5015 77.8231,-33.669 121.495,-33.669 60.8305,0 108.163,15.994 142.332,47.9987l0 -100.674c-40.6591,-18.8233 -85.4955,-28.3265 -134.659,-28.3265 -147.175,0 -246.501,61.1634 -298.178,183.34 -10.4851,24.6651 -19.4891,54.4895 -26.8287,89.6563l-74.328 0 13.4975 66.0065 50.9944 0c-0.998585,13.4975 -1.49788,28.3265 -1.49788,44.1708 0,6.4908 0.166431,12.9983 0.499293,19.8219l-63.4934 0 13.4975 66.0065 56.3369 0c20.1714,106 72.8302,181.992 157.66,228.16 52.3425,28.5096 110.177,42.8393 173.338,42.8393 60.4976,0 111.326,-13.1647 152.667,-39.4941l-19.5057 -90.5051c-39.6605,32.6704 -84.6634,48.9973 -134.992,48.9973z"
     id="path16510" /></glyph>
   <glyph
   unicode="3"
   horiz-adv-x="556"
   id="glyph16516"><path
     d="M42.0072 189.998l87.992 11.9997c10.1689,-49.9958 27.1615,-85.9948 51.3273,-107.997 24.1658,-22.0022 53.8404,-33.0032 89.0072,-33.0032 41.6743,0 76.8411,14.3297 105.168,43.0057 28.3265,28.6594 42.5064,64.1591 42.5064,106.499 0,40.3262 -13.1813,73.6623 -39.6771,99.9917 -26.3294,26.1796 -59.8319,39.3443 -100.657,39.3443 -16.6764,0 -37.3471,-3.34526 -62.1786,-9.83607l9.83607 76.9909c5.84172,-0.665724 10.6682,-0.998585 14.1633,-0.998585 37.68,0 71.3323,9.83607 101.506,29.3418 30.0075,19.5057 45.0029,49.4965 45.0029,90.0058 0,32.1544 -11.0011,58.8333 -32.8368,79.9867 -21.8357,21.17 -49.9958,31.6718 -84.497,31.6718 -34.3347,0 -62.8443,-10.8347 -85.662,-32.504 -22.8343,-21.6693 -37.5135,-54.1566 -44.0043,-97.4952l-88.0087 15.994c10.8347,58.9998 35.1668,104.835 73.3461,137.339 37.9962,32.504 85.4955,48.6644 142.165,48.6644 38.9948,0 74.9938,-8.33819 107.831,-25.1644 33.0032,-16.6597 58.1676,-39.4941 75.4931,-68.3365 17.5085,-28.9923 26.1629,-59.6655 26.1629,-92.1694 0,-30.823 -8.32154,-58.8333 -24.8315,-84.1641 -16.6597,-25.3308 -41.3248,-45.5022 -73.8287,-60.4976 42.34,-9.66963 75.1602,-30.0075 98.6602,-60.8305 23.3336,-30.6732 35.0004,-69.3351 35.0004,-115.503 0,-62.4948 -22.8343,-115.669 -68.3199,-159.158 -45.6686,-43.505 -103.337,-65.1743 -173.005,-65.1743 -62.8277,0 -115.004,18.84 -156.495,56.3369 -41.6743,37.4969 -65.3408,85.9948 -71.1658,145.66z"
     id="path16514" /></glyph>
   <glyph
   unicode="D"
   horiz-adv-x="722"
   id="glyph16520"><path
     d="M77.0076 0l0 716.002 246.667 0c55.6545,0 98.1609,-3.32862 127.486,-10.1689 41.0086,-9.5032 76.009,-26.6622 105.001,-51.3273 37.8297,-32.0047 66.0065,-72.6804 84.6634,-122.343 18.84,-49.663 28.1767,-106.499 28.1767,-170.325 0,-54.3397 -6.34102,-102.505 -19.0064,-144.512 -12.6654,-41.9905 -28.9923,-76.8245 -48.8308,-104.319 -20.005,-27.511 -41.6577,-49.1803 -65.3241,-64.8415 -23.5,-15.8276 -52.0097,-27.8272 -85.3458,-35.999 -33.5025,-8.17176 -71.8316,-12.1661 -115.154,-12.1661l-258.334 0zm94.9988 83.9977l152.667 0c47.1665,0 84.1641,4.34385 110.993,13.1647 26.8287,8.83748 48.1651,21.17 64.1591,37.164 22.335,22.5015 39.8436,52.8418 52.3425,90.838 12.499,37.9962 18.84,83.9977 18.84,138.171 0,74.9938 -12.3492,132.662 -36.8478,173.005 -24.4986,40.3262 -54.323,67.3213 -89.4899,80.9853 -25.3308,9.83607 -66.1729,14.6792 -122.51,14.6792l-150.154 0 0 -548.007z"
     id="path16518" /></glyph>
   <glyph
   unicode="0"
   horiz-adv-x="556"
   id="glyph16524"><path
     d="M42.0072 353.333c0,84.497 8.65441,152.833 25.9965,204.494 17.4919,51.8432 43.322,91.6701 77.6567,119.514 34.1683,27.8272 77.3404,41.6577 129.333,41.6577 38.3457,0 71.998,-7.67246 101.173,-23.1672 28.9923,-15.4947 52.9916,-37.8297 71.6651,-67.0051 18.6735,-28.9923 33.3361,-64.492 44.0043,-106.333 10.8347,-41.8241 16.1604,-98.3274 16.1604,-169.16 0,-83.9977 -8.67105,-152.001 -25.8301,-203.661 -17.159,-51.8432 -43.0057,-91.6701 -77.3404,-119.664 -34.1516,-28.0103 -77.4902,-42.0072 -129.833,-42.0072 -68.8192,0 -122.992,24.4986 -162.32,73.6623 -47.1665,59.9983 -70.6666,157.177 -70.6666,291.67zm89.9892 -0.332862c0,-117.833 13.664,-196.172 41.175,-234.834 27.4944,-38.8283 61.4962,-58.1676 101.822,-58.1676 40.3428,0 74.3447,19.5057 101.839,58.334 27.4944,38.9948 41.175,117.167 41.175,234.668 0,117.833 -13.6806,196.172 -41.175,234.834 -27.328,38.8283 -61.6626,58.1676 -102.838,58.1676 -40.3262,0 -72.6637,-17.1757 -96.8295,-51.3273 -30.1739,-43.505 -45.1693,-124.174 -45.1693,-241.674z"
     id="path16522" /></glyph>
   <glyph
   unicode="t"
   horiz-adv-x="277"
   id="glyph16528"><path
     d="M257.003 78.5055l11.9997 -77.6733c-24.6651,-5.15936 -46.8337,-7.83889 -66.1729,-7.83889 -31.8216,0 -56.5033,5.00957 -74.1616,15.1785 -17.5085,10.1689 -29.8411,23.3336 -36.9976,39.8269 -7.17317,16.4933 -10.6682,51.1609 -10.6682,104.003l0 298.993 -65.0079 0 0 68.0037 65.0079 0 0 128.335 87.992 52.8418 0 -181.177 88.0087 0 0 -68.0037 -88.0087 0 0 -304.003c0,-25.1644 1.49788,-41.3248 4.67671,-48.498 2.99576,-7.15653 7.98868,-12.8318 14.9954,-17.159 7.00674,-4.16077 16.9926,-6.34102 30.0075,-6.34102 9.65299,0 22.4848,1.16502 38.329,3.51169z"
     id="path16526" /></glyph>
   <glyph
   unicode="2"
   horiz-adv-x="556"
   id="glyph16532"><path
     d="M503.004 83.9977l0 -83.9977 -474.012 0c-0.665724,21.17 2.84597,41.5079 10.3354,61.1634 12.1661,32.1711 31.6718,64.0093 58.5005,95.1652 26.8453,31.1725 65.1743,67.1715 115.004,107.997 77.5069,63.8429 130.166,114.338 157.66,151.668 27.6775,37.3471 41.5079,72.6804 41.5079,106 0,34.834 -12.499,64.1758 -37.4969,88.1751 -24.9979,23.8329 -57.6683,35.8326 -97.8281,35.8326 -42.5064,0 -76.5083,-12.6654 -102.005,-37.9962 -25.4972,-25.1644 -38.329,-60.1648 -38.6619,-105.001l-90.0058 9.00391c6.15794,67.3213 29.4916,118.665 69.8344,153.999 40.4926,35.3333 94.6659,52.9916 162.836,52.9916 68.6694,0 123.159,-19.0064 163.169,-57.169 40.1598,-38.1626 60.1648,-85.4955 60.1648,-141.832 0,-28.6594 -5.84172,-56.8361 -17.675,-84.497 -11.6668,-27.8272 -31.1559,-57.0026 -58.334,-87.6591 -27.328,-30.5068 -72.4973,-72.6804 -135.491,-126.005 -52.8418,-44.3372 -86.8436,-74.328 -101.839,-90.1723 -14.9954,-15.8276 -27.328,-31.6718 -37.164,-47.6658l351.502 0z"
     id="path16530" /></glyph>
   <glyph
   unicode="/"
   horiz-adv-x="277"
   id="glyph16536"><path
     d="M0 -11.9997l208.005 740.002 70.833 0 -208.005 -740.002 -70.833 0z"
     id="path16534" /></glyph>
   <glyph
   unicode="s"
   horiz-adv-x="499"
   id="glyph16540"><path
     d="M31.0061 154.997l86.9934 13.9968c4.8265,-34.834 18.5071,-61.4962 40.8421,-80.1531 22.3184,-18.5071 53.6573,-27.8439 93.6507,-27.8439 40.5093,0 70.5001,8.17176 90.1723,24.6651 19.5057,16.3435 29.3418,35.6661 29.3418,57.8347 0,19.8386 -8.83748,35.4997 -26.346,46.8337 -12.3325,7.83889 -42.3234,17.675 -89.9892,29.8411 -64.3422,16.1604 -108.846,30.1573 -133.844,41.9905 -24.8315,11.9997 -43.6548,28.3432 -56.4866,49.3301 -12.8485,20.8371 -19.3393,44.0043 -19.3393,69.3351 0,23.1672 5.32579,44.5036 15.8276,64.1758 10.6682,19.6555 24.9979,35.999 43.1722,48.9973 13.664,10.0025 32.3375,18.5071 55.8376,25.4972 23.6665,7.00674 48.8308,10.5018 75.8259,10.5018 40.6757,0 76.3418,-5.82508 106.998,-17.6583 30.8396,-11.6668 53.5075,-27.6775 68.1701,-47.6824 14.4961,-20.1548 24.6651,-46.9834 30.1739,-80.6524l-86.0115 -11.9997c-3.82791,26.9951 -15.1619,48.1651 -33.8354,63.327 -18.6569,15.1619 -44.9863,22.6679 -79.1545,22.6679 -40.1764,0 -69.0022,-6.67388 -86.1779,-20.005 -17.159,-13.3311 -25.8301,-28.9923 -25.8301,-46.8337 0,-11.3339 3.49505,-21.6693 10.6682,-30.823 7.17317,-9.33677 18.3407,-17.1757 33.669,-23.3336 8.83748,-3.34526 34.5011,-10.8347 77.4902,-22.5015 62.0121,-16.5099 105.334,-30.1739 130.016,-40.6757 24.6651,-10.5018 43.9877,-25.9965 57.9845,-46.0015 14.1799,-20.1548 21.17,-45.1527 21.17,-75.1602 0,-29.1753 -8.48798,-56.6697 -25.6636,-82.4998 -17.159,-25.8301 -41.8241,-45.8351 -73.9952,-59.9983 -32.3375,-14.1633 -68.8358,-21.17 -109.512,-21.17 -67.3213,0 -118.832,13.9968 -154.165,41.8407 -35.3333,27.9937 -57.8347,69.3351 -67.6542,124.157z"
     id="path16538" /></glyph>
   <glyph
   unicode=","
   horiz-adv-x="277"
   id="glyph16544"><path
     d="M89.0072 0l0 99.9917 99.9917 0 0 -99.9917c0,-36.8312 -6.4908,-66.6722 -19.6721,-89.3401 -12.9983,-22.6679 -33.8188,-40.3262 -62.3284,-52.6587l-23.9993 37.9962c18.6735,8.17176 32.3375,20.1714 41.0086,35.8326 8.82084,15.8442 13.8304,38.4955 14.829,68.1701l-49.8294 0z"
     id="path16542" /></glyph>
   <glyph
   unicode="p"
   horiz-adv-x="556"
   id="glyph16548"><path
     d="M66.0065 -199.001l0 718 79.9867 0 0 -68.1701c18.84,26.346 40.1764,46.1679 64.0093,59.3326 23.6665,13.1647 52.4923,19.8386 86.3277,19.8386 44.3372,0 83.3319,-11.3339 117.167,-34.1683 33.8354,-22.6679 59.3326,-54.839 76.6747,-96.1638 17.159,-41.5079 25.8301,-86.827 25.8301,-136.34 0,-52.8252 -9.5032,-100.491 -28.5096,-142.997 -18.9898,-42.3234 -46.6672,-74.8273 -82.9991,-97.4952 -36.1654,-22.5015 -74.328,-33.8354 -114.321,-33.8354 -29.3418,0 -55.6711,6.17459 -78.8383,18.5071 -23.3336,12.3325 -42.34,27.8272 -57.3354,46.6672l0 -253.175 -87.992 0zm79.9867 455.338c0,-66.5058 13.5142,-115.669 40.3428,-147.508 26.9951,-31.8216 59.6655,-47.8322 97.9945,-47.8322 38.9948,0 72.3309,16.5099 100.008,49.4965 27.8272,33.0032 41.6577,84.0143 41.6577,153.166 0,66.0065 -13.4975,115.337 -40.6591,148.173 -27.1782,32.8368 -59.499,49.1637 -97.179,49.1637 -37.3304,0 -70.3171,-17.4919 -98.9931,-52.3259 -28.8258,-35.0004 -43.1722,-85.6786 -43.1722,-152.334z"
     id="path16546" /></glyph>
   <glyph
   unicode=" "
   horiz-adv-x="277"
   id="glyph16550" />
   <glyph
   unicode="u"
   horiz-adv-x="556"
   id="glyph16554"><path
     d="M404.993 0l0 77.174c-40.3262,-58.8333 -94.9988,-88.1751 -164.167,-88.1751 -30.4901,0 -58.9998,5.84172 -85.4955,17.5085 -26.4958,11.8332 -46.1679,26.4958 -58.9998,44.1541 -12.8318,17.8414 -21.8357,39.5107 -26.9951,65.1743 -3.49505,17.3255 -5.34243,44.6701 -5.34243,82.0005l0 321.162 88.0087 0 0 -287.16c0,-45.8351 1.83074,-76.8411 5.32579,-92.6687 5.50886,-23.1672 17.1757,-41.175 35.1668,-54.3397 17.8414,-13.1647 39.8436,-19.8219 66.1729,-19.8219 26.3294,0 50.9944,6.65724 73.9952,20.1548 23.0007,13.4975 39.3443,32.0047 48.9973,55.1718 9.5032,23.1672 14.3463,57.0026 14.3463,101.173l0 277.49 87.992 0 0 -518.998 -79.0047 0z"
     id="path16552" /></glyph>
   <glyph
   unicode="r"
   horiz-adv-x="332"
   id="glyph16558"><path
     d="M65.0079 0l0 518.998 78.9881 0 0 -79.504c20.1714,36.8312 38.845,61.18 56.004,72.8468 17.159,11.8332 35.999,17.6583 56.5033,17.6583 29.658,0 59.8319,-9.33677 90.4885,-27.8272l-31.3223 -81.1683c-21.3364,11.9997 -42.6729,17.9912 -64.0093,17.9912 -19.1562,0 -36.3319,-5.82508 -51.4937,-17.3255 -15.1619,-11.5004 -25.9965,-27.4944 -32.504,-47.9987 -9.83607,-31.1725 -14.6626,-65.3408 -14.6626,-102.505l0 -271.166 -87.992 0z"
     id="path16556" /></glyph>
   <glyph
   unicode="a"
   horiz-adv-x="556"
   id="glyph16562"><path
     d="M404.993 65.0079c-32.6537,-27.8439 -64.1591,-47.3329 -94.333,-58.8333 -30.1573,-11.5004 -62.4948,-17.1757 -97.1624,-17.1757 -57.0026,0 -100.824,13.8304 -131.497,41.6743 -30.6732,27.6608 -46.0015,63.1605 -46.0015,106.333 0,25.3308 5.84172,48.498 17.3421,69.5015 11.6668,20.9869 26.8287,37.6633 45.4856,50.3287 18.84,12.6654 39.8436,22.335 63.3436,28.8258 17.3255,4.51028 43.4884,8.83748 78.3224,13.1647 70.9994,8.33819 123.508,18.5071 157.011,30.1739 0.332862,11.9997 0.499293,19.6721 0.499293,22.8343 0,35.6661 -8.33819,60.8305 -24.9979,75.4931 -22.5015,19.8386 -56.004,29.6746 -100.341,29.6746 -41.4912,0 -72.1644,-7.3396 -91.8366,-21.8357 -19.8219,-14.4961 -34.3347,-40.1598 -43.8213,-77.174l-86.0115 11.9997c7.83889,36.8478 20.6707,66.6722 38.6785,89.3401 17.9912,22.6679 43.9877,39.9933 77.9895,52.3259 33.8354,12.1827 73.3294,18.3407 118,18.3407 44.3372,0 80.5026,-5.15936 108.33,-15.6611 27.6775,-10.5018 48.1817,-23.5 61.18,-39.3443 12.9983,-15.8276 22.1686,-35.8326 27.4944,-59.9983 2.82933,-14.9954 4.3272,-41.9905 4.3272,-80.8355l0 -116.668c0,-81.4846 1.84738,-132.995 5.50886,-154.831 3.49505,-21.8357 10.8347,-42.6562 21.5029,-62.6612l-92.003 0c-8.83748,18.5071 -14.4961,40.1598 -17.0092,65.0079zm-6.9901 194.99c-32.0047,-12.9983 -80.0033,-23.9993 -143.996,-33.0032 -36.3319,-5.15936 -62.0121,-11.0011 -77.0076,-17.4919 -14.9954,-6.50745 -26.4958,-16.0107 -34.6676,-28.3432 -8.17176,-12.499 -12.3325,-26.3294 -12.3325,-41.6577 0,-23.1672 8.83748,-42.6729 26.6622,-58.1676 17.8414,-15.4947 43.8379,-23.3336 78.0062,-23.3336 33.8354,0 63.9927,7.3396 90.5051,22.1686 26.3294,14.6626 45.8351,34.834 58.1676,60.3312 9.48656,19.8386 14.1633,48.9973 14.1633,87.4927l0.499293 32.0047z"
     id="path16560" /></glyph>
   <glyph
   unicode="%"
   horiz-adv-x="889"
   id="glyph16566"><path
     d="M58.0012 544.162c0,51.0111 12.8318,94.4995 38.6619,130.166 25.8301,35.8326 63.1772,53.674 112.174,53.674 45.0029,0 82.3334,-15.994 111.825,-47.9987 29.5082,-32.0047 44.3372,-79.1712 44.3372,-141.167 0,-60.4976 -14.9954,-107.165 -44.8365,-139.835 -29.8244,-32.6704 -66.6556,-48.9973 -110.327,-48.9973 -43.505,0 -79.6705,16.1604 -108.496,48.3315 -28.8425,32.1711 -43.3386,80.8355 -43.3386,145.827zm153.333 122.843c-21.8357,0 -39.9933,-9.33677 -54.5061,-28.1767 -14.4961,-18.8233 -21.8357,-53.3245 -21.8357,-103.487 0,-45.6686 7.3396,-77.8397 22.0022,-96.3468 14.6792,-18.6569 32.8368,-27.9937 54.3397,-27.9937 22.1686,0 40.4926,9.33677 55.0054,28.1601 14.4961,18.84 21.6527,53.1747 21.6527,103.004 0,46.0015 -7.32296,78.339 -21.9855,96.8295 -14.6792,18.6735 -32.8368,28.0103 -54.6725,28.0103zm0.499293 -693.002l390.497 753.999 71.6651 0 -389.498 -753.999 -72.6637 0zm308.163 194.158c0,51.3439 12.8318,94.8323 38.6619,130.498 25.6803,35.4997 63.1772,53.3411 112.341,53.3411 45.0029,0 82.3334,-15.994 111.842,-47.9987 29.4916,-32.0047 44.1541,-79.1712 44.1541,-141.167 0,-60.4976 -14.829,-107.165 -44.6701,-139.835 -29.8244,-32.6704 -66.822,-48.9973 -110.826,-48.9973 -43.3386,0 -79.3376,16.1604 -108.163,48.498 -28.8425,32.3375 -43.3386,81.0019 -43.3386,145.66zm153.499 122.843c-22.1686,0 -40.3262,-9.33677 -54.8223,-28.1767 -14.5128,-18.8233 -21.6693,-53.3245 -21.6693,-103.487 0,-45.3358 7.32296,-77.3404 22.0022,-96.1804 14.4961,-18.8233 32.4873,-28.1601 53.9902,-28.1601 22.5015,0 40.8421,9.33677 55.3383,28.1601 14.4961,18.84 21.6693,53.1747 21.6693,103.004 0,46.0015 -7.3396,78.339 -22.0022,96.8295 -14.4961,18.6735 -32.6704,28.0103 -54.5061,28.0103z"
     id="path16564" /></glyph>
  </font>
  <font
   id="FontID0"
   horiz-adv-x="739"
   font-variant="normal"
   style="fill-rule:nonzero"
   font-weight="400">
	<font-face
   font-family="Century Gothic"
   id="font-face16569">
	</font-face>
   <missing-glyph
   id="missing-glyph16573"><path
     d="M0 0z"
     id="path16571" /></missing-glyph>
   <glyph
   unicode="w"
   horiz-adv-x="831"
   id="glyph16577"><path
     d="M3.99216 531.004l70.5124 0 162.001 -384.995 169.49 384.995 12.6615 0 169.844 -384.995 165.332 384.995 70.158 0 -229.49 -531.004 -13.1576 0 -168.852 380.011 -169.324 -380.011 -13.6773 0 -225.498 531.004z"
     id="path16575" /></glyph>
   <glyph
   unicode="€"
   horiz-adv-x="554"
   id="glyph16581"><path
     d="M96.1666 471.001c25.0015,81.8327 71.3345,146.501 138.999,193.831 67.5026,47.4998 145.168,71.1689 232.666,71.1689 21.1697,0 47.1686,-2.66883 78.1703,-8.00265l-18.1696 -67.9994c-18.832,4.00132 -38.4998,6.00006 -58.6643,6.00006 -64.9994,0 -124.003,-17.3339 -177.333,-51.8324 -53.3343,-34.4984 -92.3347,-82.1677 -116.836,-143.166l313.001 0 -17.6651 -67.9994 -311.834 0c-2.33379,-15.0002 -3.50068,-30.6666 -3.50068,-46.8336 0,-9.83579 0.831844,-22.5022 2.49938,-38.1686l289.501 0 -17.669 -66.9981 -257.167 0c22.5022,-63.5013 60.8363,-113.169 115.168,-149 54.3356,-36.0004 116.166,-54.0006 185.667,-54.0006 21.1658,0 43.8336,2.66498 67.9994,7.9988l0 -67.9994c-20.8308,-4.00132 -45.1661,-6.00006 -73.1676,-6.00006 -91.499,0 -170.667,23.8346 -237.164,71.3345 -66.5013,47.4998 -111.667,113.331 -135.502,197.667l-72.1663 0 17.0027 66.9981 42.9979 0c-1.33249,18.1658 -1.99874,32.8347 -1.99874,43.9992 0,10.3364 0.666246,24.0002 1.99874,41.003l-60.0006 0 18.0002 67.9994 55.1674 0z"
     id="path16579" /></glyph>
   <glyph
   unicode="t"
   horiz-adv-x="338"
   id="glyph16585"><path
     d="M135.003 728.999l67.9961 0 0 -197.997 108.003 0 0 -59.0003 -108.003 0 0 -472.002 -67.9961 0 0 472.002 -93.0043 0 0 59.0003 93.0043 0 0 197.997z"
     id="path16583" /></glyph>
   <glyph
   unicode="ü"
   horiz-adv-x="607"
   id="glyph16589"><path
     d="M67.0005 531.002l68.002 0 0 -247.835c0,-60.5025 3.33244,-102 9.8304,-124.832 9.66944,-32.5017 28.5016,-58.1716 56.0017,-77.0038 27.5001,-18.8322 60.4966,-28.3347 98.6676,-28.3347 38.1651,0 70.4999,9.16868 97.1653,27.5001 26.4986,18.5043 44.9969,42.505 55.0001,72.5029 6.8318,20.5014 10.3312,63.835 10.3312,130.168l0 247.835 69.9991 0 0 -260.336c0,-73.1646 -8.49504,-128.165 -25.664,-165.167 -17.002,-37.1636 -42.8329,-66.1659 -77.1647,-87.0011 -34.3378,-20.9962 -77.3376,-31.5002 -129.166,-31.5002 -51.8346,0 -95.0013,10.504 -129.667,31.5002 -34.6717,20.8352 -60.6695,50.1654 -77.6715,87.6688 -17.163,37.4974 -25.664,93.9998 -25.664,169.334l0 255.501zm134.502 209.997c15.6666,0 28.8295,-5.5024 39.9952,-16.5012 11.0048,-11.1658 16.5012,-24.3346 16.5012,-40.0012 0,-15.4997 -5.49644,-28.8295 -16.5012,-39.9952 -11.1658,-11.0048 -24.3286,-16.5012 -39.9952,-16.5012 -15.4997,0 -28.8354,5.49644 -40.0012,16.5012 -10.9988,11.1658 -16.5012,24.4955 -16.5012,39.9952 0,15.6666 5.5024,28.8354 16.5012,40.0012 11.1658,10.9988 24.5015,16.5012 40.0012,16.5012zm198.998 0c15.6666,0 28.8354,-5.5024 40.0012,-16.5012 10.9988,-11.1658 16.4953,-24.3346 16.4953,-40.0012 0,-15.4997 -5.49644,-28.8295 -16.4953,-39.9952 -11.1658,-11.0048 -24.3346,-16.5012 -40.0012,-16.5012 -15.4997,0 -28.8354,5.49644 -40.0012,16.5012 -10.9988,11.1658 -16.5012,24.4955 -16.5012,39.9952 0,15.6666 5.5024,28.8354 16.5012,40.0012 11.1658,10.9988 24.5015,16.5012 40.0012,16.5012z"
     id="path16587" /></glyph>
   <glyph
   unicode="R"
   horiz-adv-x="606"
   id="glyph16593"><path
     d="M91.0012 718.001l143.331 0c79.8355,0 134.001,-3.33244 162.336,-9.83636 42.8329,-9.66348 77.4986,-30.4987 104.164,-62.6665 26.8324,-31.995 40.1681,-71.4954 40.1681,-118.328 0,-38.9997 -9.16868,-73.3375 -27.667,-102.835 -18.3314,-29.67 -44.669,-52.0015 -79.0009,-67.1674 -34.165,-15.1659 -81.4987,-22.8323 -141.834,-23.1661l258.5 -334.001 -88.1636 0 -258.5 334.001 -41.3366 0 0 -334.001 -71.9962 0 0 718.001zm71.9962 -69.9991l0 -244.001 124.004 -1.00152c48.1684,0 83.6627,4.50088 106.668,13.6696 22.9992,9.16272 40.9968,23.6669 53.9986,43.6675 12.835,20.0006 19.3329,42.3321 19.3329,67.1615 0,24.0007 -6.49796,46.0044 -19.6668,65.6711 -13.0019,19.6668 -30.1648,33.6642 -51.5008,42.1652 -21.169,8.501 -56.5024,12.668 -105.833,12.668l-127.002 0z"
     id="path16591" /></glyph>
   <glyph
   unicode="-"
   horiz-adv-x="331"
   id="glyph16597"><path
     d="M31.999 299.999l268 0 0 -60.0006 -268 0 0 60.0006z"
     id="path16595" /></glyph>
   <glyph
   unicode="*"
   horiz-adv-x="424"
   id="glyph16601"><path
     d="M180.002 736.001l62.9968 0 -13.9989 -145.168 119 85.9996 31.999 -54.6668 -134.166 -61.1637 134.166 -60.0006 -31.999 -55.0018 -119 84.8327 13.9989 -144.833 -62.9968 0 14.9963 144.833 -119.832 -84.8327 -32.1646 55.0018 137 60.0006 -137 61.1637 32.1646 54.6668 119.832 -85.834 -14.9963 145.003z"
     id="path16599" /></glyph>
   <glyph
   unicode="n"
   horiz-adv-x="609"
   id="glyph16605"><path
     d="M76.0023 531.002l67.9961 0 0 -95.1683c27.5001,36.3349 57.8378,63.5011 91.0012,81.3318 33.3363,17.8366 69.4983,26.8324 108.665,26.8324 39.8343,0 75.1677,-9.99732 106,-30.1648 30.8325,-20.1675 53.6708,-47.3338 68.3359,-81.4987 14.6651,-34.004 21.9977,-87.168 21.9977,-159.337l0 -272.998 -67.9961 0 0 252.997c0,61.0033 -2.67072,101.839 -7.83332,122.334 -8.33408,34.9996 -23.6669,61.3371 -46.1713,79.1678 -22.4984,17.6697 -51.8287,26.4986 -87.9967,26.4986 -41.5035,0 -78.667,-13.6636 -111.336,-40.9968 -32.8296,-27.1662 -54.4994,-61.0033 -64.8305,-101.332 -6.50392,-26.3376 -9.83636,-74.3331 -9.83636,-144.171l0 -194.498 -67.9961 0 0 531.002z"
     id="path16603" /></glyph>
   <glyph
   unicode="k"
   horiz-adv-x="501"
   id="glyph16609"><path
     d="M75.9927 735.998l68.0084 0 0 -419.673 248.01 214.679 99.0008 0 -292.349 -252.994 309.333 -278.01 -96.8275 0 -267.167 240.167 0 -240.167 -68.0084 0 0 735.998z"
     id="path16607" /></glyph>
   <glyph
   unicode="2"
   horiz-adv-x="554"
   id="glyph16613"><path
     d="M116.001 492.996l-68.9986 0c2.00118,71.0082 25.494,129.168 70.8316,174.674 45.3292,45.4974 101.329,68.3259 167.998,68.3259 65.837,0 119.171,-21.3319 160.002,-63.9956 40.8307,-42.6638 61.1704,-93.0043 61.1704,-150.996 0,-40.8391 -9.83772,-79.0045 -29.3366,-114.672 -19.4989,-35.668 -57.3362,-83.999 -113.504,-144.833l-179.164 -193.5 332.002 0 0 -67.998 -487.001 0 273.665 295.502c55.5032,59.8335 91.4992,104.002 108.333,133.003 16.6653,28.8321 24.9979,59.1609 24.9979,91.1629 0,40.5028 -15.0004,75.33 -44.9929,104.498 -30.0008,29.1684 -66.6695,43.8325 -110.174,43.8325 -45.6655,0 -83.6627,-15.3283 -114,-46.0018 -30.3288,-30.6651 -47.6667,-73.6652 -51.8288,-129z"
     id="path16611" /></glyph>
   <glyph
   unicode="e"
   horiz-adv-x="649"
   id="glyph16617"><path
     d="M524.332 175.999l57.6709 -30.3318c-19.005,-36.8357 -40.8358,-66.6667 -65.6711,-89.332 -24.8294,-22.5044 -52.6633,-39.8343 -83.6627,-51.6677 -31.1664,-11.8334 -66.1659,-17.6697 -105.332,-17.6697 -87.0011,0 -154.836,28.3347 -203.833,85.004 -49.003,56.6634 -73.5044,120.665 -73.5044,192 0,67.1674 20.8352,127.163 62.3327,179.666 52.5023,66.8336 123.002,100.331 211.172,100.331 90.8283,0 163.498,-34.3319 217.664,-102.829 38.4989,-48.3353 58.1657,-108.671 58.8333,-181.168l-480.002 0c1.33536,-61.5041 21.169,-111.836 59.3341,-151.003 38.332,-39.3335 85.6657,-59.0003 141.834,-59.0003 27.1662,0 53.6648,4.6678 79.3347,14.0034 25.664,9.32964 47.5007,21.6638 65.4982,37.1636 18.0035,15.4997 37.5034,40.335 58.3326,74.8338zm0.66768 143.003c-9.16868,36.4959 -22.4984,65.4982 -40.0012,87.329 -17.6637,21.8367 -40.8298,39.3335 -69.6653,52.6692 -28.8354,13.3357 -59.1672,20.0006 -90.8343,20.0006 -52.4963,0 -97.4992,-16.6682 -135.163,-50.1654 -27.667,-24.5015 -48.3353,-61.0033 -62.4996,-109.833l398.164 0z"
     id="path16615" /></glyph>
   <glyph
   unicode="s"
   horiz-adv-x="388"
   id="glyph16621"><path
     d="M343.998 473.332l-43.9954 -45.3307c-36.5018,35.3334 -72.336,52.9971 -107.169,52.9971 -22.1706,0 -41.1696,-7.33256 -57.0032,-21.9977 -15.8336,-14.4982 -23.8338,-31.6671 -23.8338,-51.1669 0,-17.1689 6.50392,-33.6642 19.4998,-49.1639 13.0019,-16.0005 40.502,-34.6717 82.1723,-56.1686 50.6662,-26.1647 85.165,-51.6677 103.496,-76.0023 17.8366,-24.6624 26.8324,-52.4963 26.8324,-83.3348 0,-43.6615 -15.3328,-80.4972 -45.9984,-110.829 -30.6656,-30.1708 -68.9976,-45.3367 -115.002,-45.3367 -30.6656,0 -59.8289,6.67084 -87.8297,20.0006 -27.8339,13.3357 -50.8331,31.6671 -69.1705,55.1671l42.9998 48.836c34.8386,-39.3335 72.0021,-59.0003 111.169,-59.0003 27.3332,0 50.6662,8.82888 69.9991,26.3316 19.166,17.5028 28.8354,38.1651 28.8354,61.8319 0,19.4998 -6.337,36.8357 -18.9991,52.1685 -12.835,14.999 -41.5035,33.8311 -86.1665,56.5024 -48.0014,24.6624 -80.6701,48.997 -97.833,72.9977 -17.3358,24.0007 -26.0038,51.3339 -26.0038,82.1664 0,40.1681 13.8365,73.4985 41.3366,100.164 27.667,26.5045 62.4996,39.8343 104.665,39.8343 49.003,0 98.3338,-23.5 147.998,-70.6668z"
     id="path16619" /></glyph>
   <glyph
   unicode=","
   horiz-adv-x="276"
   id="glyph16625"><path
     d="M144.333 132.001l65.6656 -31.3328 -98.8316 -184.669 -48.1661 20.4996 81.332 195.503z"
     id="path16623" /></glyph>
   <glyph
   unicode="ä"
   horiz-adv-x="683"
   id="glyph16629"><path
     d="M605.002 531.002l0 -531.002 -68.002 0 0 91.3351c-28.6685,-34.8326 -60.6635,-61.0033 -96.3307,-78.3332 -35.5003,-17.3358 -74.5,-26.0038 -116.671,-26.0038 -74.9948,0 -139.164,27.1662 -192.334,81.5047 -53.164,54.4994 -79.6626,120.498 -79.6626,198.498 0,76.1632 26.8324,141.5 80.4972,195.666 53.5038,54.1655 118.001,81.3318 193.502,81.3318 43.5006,0 82.8341,-9.16272 118.167,-27.5001 35.1665,-18.3314 66.1659,-45.9984 92.8314,-83.1619l0 97.6661 68.002 0zm-273.665 -53.0031c-38.0041,0 -73.1706,-9.3356 -105.172,-28.0008 -32.1619,-18.4983 -57.6649,-44.663 -76.664,-78.3332 -18.9991,-33.6642 -28.5016,-69.3314 -28.5016,-106.996 0,-37.1695 9.50252,-72.8367 28.6685,-106.835 19.166,-34.004 44.83,-60.5025 77.1647,-79.3347 32.3348,-18.9991 67.0005,-28.5016 104.003,-28.5016 37.1636,0 72.6639,9.3356 106,28.1678 33.4973,18.8322 59.1672,44.1682 77.1647,76.3361 17.9976,31.995 26.9993,68.163 26.9993,108.331 0,61.1643 -20.1675,112.331 -60.6635,153.501 -40.335,41.1637 -90.0057,61.665 -149,61.665zm-91.8358 263c15.6666,0 28.8354,-5.5024 40.0012,-16.5012 10.9988,-11.1658 16.5012,-24.3346 16.5012,-40.0012 0,-15.4997 -5.5024,-28.8295 -16.5012,-39.9952 -11.1658,-11.0048 -24.3346,-16.5012 -40.0012,-16.5012 -15.4997,0 -28.8354,5.49644 -40.0012,16.5012 -10.9988,11.1658 -16.5012,24.4955 -16.5012,39.9952 0,15.6666 5.5024,28.8354 16.5012,40.0012 11.1658,10.9988 24.5015,16.5012 40.0012,16.5012zm198.998 0c15.6666,0 28.8354,-5.5024 40.0012,-16.5012 10.9988,-11.1658 16.5012,-24.3346 16.5012,-40.0012 0,-15.4997 -5.5024,-28.8295 -16.5012,-39.9952 -11.1658,-11.0048 -24.3346,-16.5012 -40.0012,-16.5012 -15.4997,0 -28.8295,5.49644 -40.0012,16.5012 -10.9988,11.1658 -16.4953,24.4955 -16.4953,39.9952 0,15.6666 5.49644,28.8354 16.4953,40.0012 11.1717,10.9988 24.5015,16.5012 40.0012,16.5012z"
     id="path16627" /></glyph>
   <glyph
   unicode="V"
   horiz-adv-x="702"
   id="glyph16633"><path
     d="M33.0003 717.998l78.166 0 238.325 -555.831 242.34 555.831 78.166 0 -312.995 -717.998 -15.9923 0 -308.01 717.998z"
     id="path16631" /></glyph>
   <glyph
   unicode="g"
   horiz-adv-x="672"
   id="glyph16637"><path
     d="M535.003 531.002l67.9961 0 0 -422.671c0,-74.3331 -6.49796,-128.832 -19.4998,-163.331 -17.8306,-48.6691 -48.8301,-86.1665 -93.1652,-112.498 -44.1682,-26.3376 -97.3323,-39.5004 -159.331,-39.5004 -45.5036,0 -86.3334,6.49796 -122.668,19.3329 -36.168,13.0019 -65.6651,30.3318 -88.5034,52.1685 -22.6654,21.6638 -43.6615,53.6648 -62.8335,95.4961l74.0052 0c20.1616,-35.3334 46.1653,-61.4981 78.1663,-78.5001 31.834,-16.996 71.4954,-25.497 118.662,-25.497 46.672,0 85.9996,8.66792 118.001,25.8309 32.1679,17.3358 55.0001,38.9997 68.6697,65.0034 13.6636,26.1647 20.5014,68.3299 20.5014,126.829l0 27.3332c-25.6699,-32.4958 -57.1701,-57.498 -94.3337,-74.8338 -37.0026,-17.4968 -76.503,-26.1647 -118.167,-26.1647 -48.836,0 -94.6675,12.1673 -137.667,36.3349 -42.9998,24.1676 -76.1692,56.8303 -99.6691,97.6661 -23.5,40.9968 -35.1665,85.9996 -35.1665,134.997 0,49.1699 12.1673,94.8344 36.6688,137.333 24.3346,42.3381 58.1657,76.0023 101.332,100.671 43.1667,24.6624 88.6643,36.9966 136.499,36.9966 39.6674,0 76.8369,-8.16716 111.169,-24.3346 34.3319,-16.1614 67.5013,-43.1667 99.3353,-80.9979l0 92.3366zm-201.836 -53.0031c-38.6658,0 -74.6669,-9.3356 -107.83,-28.0008 -33.1694,-18.6652 -59.1672,-44.4961 -78.0053,-77.4986 -18.8322,-33.0025 -28.3287,-68.6637 -28.3287,-107.169 0,-58.1657 19.4998,-106.167 58.4995,-144.332 38.9997,-37.9982 89.6659,-56.9972 151.665,-56.9972 62.8335,0 113.333,18.8322 151.498,56.4965 38.171,37.8372 57.337,87.3349 57.337,148.833 0,40.0012 -8.83484,75.6684 -26.3316,107.002 -17.5028,31.3333 -42.505,56.1686 -74.6669,74.3331 -32.1679,18.1645 -66.8336,27.3332 -103.836,27.3332z"
     id="path16635" /></glyph>
   <glyph
   unicode="S"
   horiz-adv-x="498"
   id="glyph16641"><path
     d="M12.9922 134.34l61.0162 36.6617c42.9925,-79.3235 92.67,-119.009 148.985,-119.009 24.1655,0 46.8429,5.66934 68.0084,16.8427 21.1655,11.1733 37.3231,26.3388 48.3311,45.1657 11.1733,18.8269 16.6773,38.835 16.6773,60.0005 0,24.0002 -8.17329,47.5043 -24.5199,70.6541 -22.4884,31.8428 -63.4966,70.347 -123.332,115.182 -60.0005,45.3311 -97.3236,78.0006 -111.993,98.174 -25.4884,33.827 -38.1735,70.4887 -38.1735,109.82 0,31.1577 7.51187,59.6698 22.512,85.3471 15.0001,25.6537 36.1656,45.8271 63.4966,60.6619 27.3309,14.8348 56.8351,22.1577 88.8432,22.1577 33.9924,0 65.8115,-8.33865 95.3157,-25.1577 29.5042,-16.6773 60.8509,-47.5043 93.8511,-92.3393l-58.6776 -44.5043c-27.1656,35.8349 -50.339,59.5044 -69.4966,70.8431 -19.1813,11.504 -39.9924,17.1497 -62.5044,17.1497 -29.1735,0 -53.0083,-8.81109 -71.5045,-26.3152 -18.4962,-17.6694 -27.827,-39.1657 -27.827,-65.0084 0,-15.4962 3.33073,-30.6617 9.82685,-45.3311 6.49611,-14.6694 18.4962,-30.4963 35.8349,-47.835 9.33078,-9.00007 40.5121,-33.0003 93.1661,-71.6699 62.3391,-45.9925 105.166,-86.8353 128.34,-122.505 23.1734,-35.8349 34.8428,-71.8352 34.8428,-108.001 0,-51.9925 -19.8427,-97.3236 -59.339,-135.662 -39.6617,-38.5042 -87.8275,-57.6619 -144.497,-57.6619 -43.6775,0 -83.3392,11.6694 -118.843,35.0081 -35.5042,23.3151 -68.3391,62.4808 -98.3394,117.332z"
     id="path16639" /></glyph>
   <glyph
   unicode="1"
   horiz-adv-x="554"
   id="glyph16645"><path
     d="M185 718.002l141.999 0 0 -718.002 -72.0003 0 0 648.003 -112.999 0 43.0001 69.9992z"
     id="path16643" /></glyph>
   <glyph
   unicode=" "
   horiz-adv-x="276"
   id="glyph16647" />
   <glyph
   unicode="d"
   horiz-adv-x="684"
   id="glyph16651"><path
     d="M605.997 735.998l0 -735.998 -67.9961 0 0 91.3351c-28.6685,-34.8326 -60.6695,-61.0033 -96.3367,-78.3332 -35.5003,-17.3358 -74.5,-26.0038 -116.665,-26.0038 -75.0007,0 -139.164,27.1662 -192.334,81.5047 -53.164,54.4994 -79.6685,120.498 -79.6685,198.498 0,76.1632 26.8384,141.5 80.5031,195.666 53.4979,54.1655 118.001,81.3318 193.502,81.3318 43.5006,0 82.8281,-9.32964 118.161,-27.8339 35.1724,-18.4983 66.1719,-46.3322 92.8373,-83.4958l0 303.329 67.9961 0zm-273.665 -257.999c-37.9982,0 -73.1646,-9.3356 -105.166,-28.0008 -32.1679,-18.4983 -57.6649,-44.663 -76.664,-78.3332 -19.005,-33.6642 -28.5016,-69.3314 -28.5016,-106.996 0,-37.1695 9.49656,-72.8367 28.6685,-106.835 19.166,-34.004 44.83,-60.5025 77.1647,-79.3347 32.3348,-18.9991 67.0005,-28.5016 103.997,-28.5016 37.1695,0 72.6698,9.3356 106,28.1678 33.5032,18.8322 59.1672,44.1682 77.1707,76.3361 17.9976,31.995 26.9993,68.163 26.9993,108.331 0,61.1643 -20.1675,112.331 -60.6695,153.501 -40.3291,41.1637 -89.9997,61.665 -149,61.665z"
     id="path16649" /></glyph>
   <glyph
   unicode="u"
   horiz-adv-x="607"
   id="glyph16655"><path
     d="M67.0005 531.002l68.002 0 0 -247.835c0,-60.5025 3.33244,-102 9.8304,-124.832 9.66944,-32.5017 28.5016,-58.1716 56.0017,-77.0038 27.5001,-18.8322 60.4966,-28.3347 98.6676,-28.3347 38.1651,0 70.4999,9.16868 97.1653,27.5001 26.4986,18.5043 44.9969,42.505 55.0001,72.5029 6.8318,20.5014 10.3312,63.835 10.3312,130.168l0 247.835 69.9991 0 0 -260.336c0,-73.1646 -8.49504,-128.165 -25.664,-165.167 -17.002,-37.1636 -42.8329,-66.1659 -77.1647,-87.0011 -34.3378,-20.9962 -77.3376,-31.5002 -129.166,-31.5002 -51.8346,0 -95.0013,10.504 -129.667,31.5002 -34.6717,20.8352 -60.6695,50.1654 -77.6715,87.6688 -17.163,37.4974 -25.664,93.9998 -25.664,169.334l0 255.501z"
     id="path16653" /></glyph>
   <glyph
   unicode="."
   horiz-adv-x="276"
   id="glyph16659"><path
     d="M150.993 108.001c16.6773,0 30.6617,-5.83469 42.4964,-17.5041 11.6694,-11.8347 17.5041,-26.0081 17.5041,-42.9925 0,-16.6773 -5.83469,-30.827 -17.5041,-42.6618 -11.8347,-11.8347 -25.8191,-17.8348 -42.4964,-17.8348 -16.4883,0 -30.6617,6.00005 -42.4964,17.8348 -11.6694,11.8347 -17.5041,25.9845 -17.5041,42.6618 0,16.9844 5.83469,31.1577 17.5041,42.9925 11.8347,11.6694 26.0081,17.5041 42.4964,17.5041z"
     id="path16657" /></glyph>
   <glyph
   unicode="a"
   horiz-adv-x="683"
   id="glyph16663"><path
     d="M605.003 531.001l0 -531.001 -68.0064 0 0 91.331c-28.6639,-34.8272 -60.6659,-60.9939 -96.334,-78.3318 -35.4999,-17.3295 -74.4976,-25.9985 -116.665,-25.9985 -74.9937,0 -139.166,27.1672 -192.332,81.5017 -53.1657,54.4942 -79.6687,120.499 -79.6687,198.495 0,76.1709 26.8393,141.503 80.5011,195.67 53.5021,54.1663 118.002,81.3336 193.5,81.3336 43.5046,0 82.8386,-9.16506 118.17,-27.5036 35.1635,-18.3301 66.165,-45.9934 92.8277,-83.1666l0 97.6709 68.0064 0zm-273.674 -52.9976c-37.9971,0 -73.1607,-9.33322 -105.163,-28.0081 -32.1702,-18.4983 -57.6642,-44.6649 -76.6669,-78.3318 -19.0028,-33.6669 -28.4958,-69.3265 -28.4958,-106.996 0,-37.1647 9.49298,-72.8328 28.6639,-106.836 19.1625,-34.0032 44.8331,-60.4978 77.163,-79.3324 32.3384,-19.0028 67.0058,-28.5042 104.002,-28.5042 37.1647,0 72.6646,9.34163 106.004,28.1678 33.4987,18.8346 59.1609,44.1688 77.163,76.339 18.0022,31.9936 26.9991,68.1661 26.9991,108.333 0,61.162 -20.1631,112.335 -60.6659,153.502 -40.3347,41.1587 -90.0025,61.6665 -149.004,61.6665z"
     id="path16661" /></glyph>
   <glyph
   unicode="r"
   horiz-adv-x="300"
   id="glyph16667"><path
     d="M49.9985 531.002l69.9991 0 0 -77.6715c20.8352,30.6716 42.8329,53.3369 66.0049,68.3359 23.1661,14.832 47.3338,22.3315 72.33,22.3315 18.9991,0 39.1666,-5.9972 60.6695,-17.9976l-35.6672 -57.337c-14.3372,6.17008 -26.3376,9.3356 -36.168,9.3356 -22.8323,0 -44.8359,-9.3356 -65.999,-28.0008 -21.169,-18.6652 -37.3364,-47.8345 -48.5022,-87.168 -8.501,-30.1648 -12.668,-91.3291 -12.668,-183.332l0 -179.499 -69.9991 0 0 531.002z"
     id="path16665" /></glyph>
   <glyph
   unicode="o"
   horiz-adv-x="654"
   id="glyph16671"><path
     d="M327.829 543.996c81.8274,0 149.836,-29.5042 203.671,-88.6542 48.9925,-53.8351 73.4888,-117.686 73.4888,-191.34 0,-74.0085 -25.8191,-138.663 -77.6463,-194.009 -51.6854,-55.3233 -118.347,-82.9849 -199.513,-82.9849 -81.6621,0 -148.489,27.6616 -200.151,82.9849 -51.8508,55.3469 -77.6699,120.001 -77.6699,194.009 0,73.3234 24.4963,137.009 73.4888,190.82 53.8351,59.5044 122.009,89.1739 204.332,89.1739zm-0.330711 -66.9927c-56.8351,0 -105.497,-20.8348 -146.34,-62.6698 -40.8192,-41.835 -61.158,-92.5047 -61.158,-151.844 0,-38.1499 9.33078,-73.8195 27.827,-106.985 18.6616,-33.0003 43.8429,-58.5123 75.4967,-76.5124 31.5121,-18.0001 66.3312,-27.0002 104.174,-27.0002 37.8428,0 72.662,9.00007 104.174,27.0002 31.6538,18.0001 56.8351,43.5122 75.4967,76.5124 18.4962,33.1656 27.827,68.8352 27.827,106.985 0,59.339 -20.5041,110.009 -61.4887,151.844 -40.8428,41.835 -89.5046,62.6698 -146.009,62.6698z"
     id="path16669" /></glyph>
   <glyph
   unicode="M"
   horiz-adv-x="918"
   id="glyph16675"><path
     d="M56.0083 0l99.4968 717.998 14.8348 0 292.16 -588.997 290.341 588.997 10.819 0 103.347 -717.998 -69.4966 0 -72.0006 513.996 -254.341 -513.996 -18.6616 0 -257.01 517.988 -68.8352 -517.988 -70.6541 0z"
     id="path16673" /></glyph>
   <glyph
   unicode="l"
   horiz-adv-x="200"
   id="glyph16679"><path
     d="M66.0005 735.998l68.0084 0 0 -735.998 -68.0084 0 0 735.998z"
     id="path16677" /></glyph>
   <glyph
   unicode="9"
   horiz-adv-x="554"
   id="glyph16683"><path
     d="M191.998 -18.0002l-58.9993 37.9991 194.166 293.502c-25.999,-8.33385 -50.4999,-12.5008 -73.3332,-12.5008 -56.9967,0 -105.332,20.6652 -145.165,61.8338 -39.8322,41.1647 -59.6656,91.8341 -59.6656,152 0,41.3303 9.66634,78.667 28.8334,111.833 19.1632,33.1659 46.333,59.6656 81.6632,79.4989 35.3341,19.8333 73.1676,29.8347 113.501,29.8347 39.6666,0 76.3333,-9.66634 110,-28.8334 33.6666,-19.1671 60.0006,-46.0018 79.1677,-80.5002 19.1671,-34.5023 28.8334,-71.1689 28.8334,-110.169 0,-29.6653 -6.00006,-60.663 -17.8346,-92.9971 -11.8307,-32.3341 -33.0003,-71.3345 -63.6669,-116.836l-217.5 -324.666zm78.3358 382.001c42.166,0 77.8314,14.6651 107,44.1648 29.1646,29.4997 43.668,65.1688 43.668,106.834 0,41.6654 -14.669,77.3346 -44.1686,106.834 -29.4997,29.4997 -65.165,44.1648 -107,44.1648 -41.6654,0 -77.1651,-14.6651 -106.665,-44.1648 -29.5035,-29.4997 -44.1686,-65.1688 -44.1686,-106.834 0,-41.6654 14.8346,-77.3346 44.3342,-106.834 29.4997,-29.4997 65.165,-44.1648 107,-44.1648z"
     id="path16681" /></glyph>
   <glyph
   unicode="z"
   horiz-adv-x="424"
   id="glyph16687"><path
     d="M32.0081 531.004l390.995 0 -300.994 -470.012 291.002 0 0 -60.9926 -409.019 0 302.341 471.996 -274.325 0 0 59.0083z"
     id="path16685" /></glyph>
   <glyph
   unicode="%"
   horiz-adv-x="774"
   id="glyph16691"><path
     d="M675.005 750.006l-525.004 -798.998 -64.5123 0 478.185 727.825c-57.0004,-13.8426 -126.497,-20.8348 -208.513,-20.8348l-26.5041 0.496067c20.1734,-27.9923 30.3546,-57.6619 30.3546,-88.985 0,-44.6696 -15.5198,-84.4967 -46.5122,-119.67 -30.9924,-35.1735 -72.1659,-52.8429 -123.497,-52.8429 -47.0082,0 -86.67,16.3466 -118.843,49.1815 -32.1499,32.6459 -48.1657,72.4966 -48.1657,119.316 0,31.3467 7.34651,59.6698 22.0159,85.3471 14.6694,25.4884 35.4806,46.1578 62.6698,61.654 27.0002,15.6615 54.6618,23.5041 83.1503,23.5041 12.0001,0 31.8428,-2.83467 59.6698,-8.66936 42.331,-8.83472 88.3235,-13.3229 137.836,-13.3229 36.4964,0 71.0084,2.3386 103.489,6.99218 32.5042,4.84256 74.6699,14.3387 126.521,29.0081l57.6619 0zm-484.681 -76.0163c-29.4805,0 -54.4965,-10.4883 -75.3313,-31.4884 -20.6695,-20.8348 -30.9924,-46.1578 -30.9924,-75.662 0,-29.6695 10.3229,-54.8508 30.9924,-75.662 20.8348,-20.8348 45.8508,-31.1813 75.3313,-31.1813 29.3388,0 54.5201,10.3465 75.3313,31.1813 20.8348,20.8112 31.3467,45.9925 31.3467,75.662 0,29.5042 -10.5119,54.8272 -31.3467,75.662 -20.8112,21.0002 -45.9925,31.4884 -75.3313,31.4884zm394.184 -356.979c46.4886,0 86.1503,-16.5119 118.985,-49.5122 33.0003,-33.1656 49.5122,-72.9927 49.5122,-119.505 0,-46.4886 -16.5119,-86.3156 -49.5122,-119.505 -32.8349,-32.9766 -72.4966,-49.4886 -118.985,-49.4886 -46.5122,0 -86.1739,16.5119 -119.009,49.4886 -33.0003,33.1892 -49.4886,73.0163 -49.4886,119.505 0,46.5122 16.4883,86.3393 49.4886,119.505 32.8349,33.0003 72.4966,49.5122 119.009,49.5122zm-0.165356 -62.0084c-29.5042,0 -54.5201,-10.5119 -75.3549,-31.3467 -20.6458,-20.8112 -30.9924,-45.9925 -30.9924,-75.662 0,-29.6695 10.3465,-54.8272 30.9924,-75.662 20.8348,-20.8348 45.8508,-31.3231 75.3549,-31.3231 29.3152,0 54.4965,10.4883 75.3313,31.3231 20.8348,20.8348 31.3231,45.9925 31.3231,75.662 0,29.6695 -10.4883,54.8508 -31.3231,75.662 -20.8348,20.8348 -46.0161,31.3467 -75.3313,31.3467z"
     id="path16689" /></glyph>
   <glyph
   unicode="i"
   horiz-adv-x="200"
   id="glyph16695"><path
     d="M99.8276 748.99c15.4962,0 28.6774,-5.48036 39.6617,-16.6537 11.008,-11.008 16.5119,-24.4963 16.5119,-39.9924 0,-15.3545 -5.50398,-28.6774 -16.5119,-39.6854 -10.9843,-11.1497 -24.1655,-16.6537 -39.6617,-16.6537 -15.3308,0 -28.3231,5.50398 -39.331,16.6537 -11.008,11.008 -16.4883,24.3309 -16.4883,39.6854 0,15.4962 5.48036,28.9845 16.4883,39.9924 11.008,11.1733 24.0002,16.6537 39.331,16.6537zm-33.827 -217.986l68.0084 0 0 -531.004 -68.0084 0 0 531.004z"
     id="path16693" /></glyph>
  </font>
</defs>
</svg>
